Original VOD:
Original Title: Games and shit!
Stream Date: 30/10/2021 5:04:27 pm
Stream Duration: 5:54:50
VOD and chat files: …

Game: …

Game Description: Crab Game is a First-Person Multiplayer game where you play through several different minigames based on children’s games, until only one player stands victorious.


General
Format : MPEG-4
Format profile : Base Media
Codec ID : isom (isom/iso2/avc1/mp41)
File size : 15.2 GiB
Duration : 5 h 54 min
Overall bit rate mode : Constant
Overall bit rate : 6 149 kb/s
Writing application : Lavf58.76.100

Video
ID : 1
Format : AVC
Format/Info : Advanced Video Codec
Format profile : [email protected]
Format settings : CABAC / 4 Ref Frames
Format settings, CABAC : Yes
Format settings, Reference frames : 4 frames
Format settings, GOP : M=3, N=120
Codec ID : avc1
Codec ID/Info : Advanced Video Coding
Duration : 5 h 54 min
Source duration : 5 h 54 min
Bit rate mode : Constant
Bit rate : 6 003 kb/s
Width : 1 920 pixels
Height : 1 080 pixels
Display aspect ratio : 16:9
Frame rate mode : Variable
Frame rate : 60.000 FPS
Minimum frame rate : 58.824 FPS
Maximum frame rate : 62.500 FPS
Color space : YUV
Chroma subsampling : 4:2:0
Bit depth : 8 bits
Scan type : Progressive
Bits/(Pixel*Frame) : 0.048
Stream size : 14.9 GiB (98%)
Source stream size : 14.9 GiB (98%)
Color range : Limited
Color primaries : BT.709
Transfer characteristics : BT.709
Matrix coefficients : BT.709
mdhd_Duration : 21288874
Codec configuration box : avcC

Audio
ID : 2
Format : AAC LC
Format/Info : Advanced Audio Codec Low Complexity
Codec ID : mp4a-40-2
Duration : 5 h 54 min
Source duration : 5 h 54 min
Bit rate mode : Constant
Bit rate : 129 kb/s
Channel(s) : 2 channels
Channel layout : L R
Sampling rate : 48.0 kHz
Frame rate : 46.875 FPS (1024 SPF)
Compression mode : Lossy
Stream size : 327 MiB (2%)
Source stream size : 327 MiB (2%)
Default : Yes
Alternate group : 1
mdhd_Duration : 21289834

#forsen #CrabGame #SquidGame #gaming #twitch